Просмотр сообщений

В этом разделе можно просмотреть все сообщения, сделанные этим пользователем.


Сообщения - Razor

Страницы: Назад 1 2 3 4 [5] 6 7 8 9 ... 56 Далее
121
Сатиновый это матовый?
Да.
Хрен там плавал, у меня в темноте через два года опять все жёлтое, нифига это не работает
Ну кислород там есть, может его хватило, чтобы реакцию продолжить.

122
Обычно рекомендуют акриловый лак для защиты от УФ. Ну и в зависимости от текстуры самой консоли - либо глянцевый, либо сатиновый.

123
Цитата
как закрепить результат?
Залакировать корпус, чтобы не было доступа к кислороду. Либо хранить в подвале, чтобы никогда свет не попадал на корпус.
Цитата
2 года назад отбелил, а сейчас он опять начал желтеть.
Ну так перекись только поверхность отбеливает, поэтому желтизна изнутри быстро пробивается назад.

124
Небольшой бонусный релиз музыки для режима Mode 1. Оригинальные аранжировки геймплейной музыки из Дюны 2 от Френка Клепаки. Подборка универсальная и работает на всех DuneHack версий R81 и R82.


Скачать

125
Razor, Да через RetroArch с Genesis Plus GX, при запуске bin музыка не подхватывается и играет стандартная.
Вот тебе точно рабочая сборка рома, .cue файла и семи треков-заглушек. Тебе остаётся только проверить что всё запускается и заменить треки на свои. Обращаю внимание, что новая музыка работает только во время гонки.

126
Воспроизводится только биос с выбором музыки
Если ты через RetroArch на ядре Genesis Plus GX, то запускать нужно не .cue файл, а .bin файл.

127
Подскажите как создать cue со своими треками. Или кто нибудь по подробней объясните как свои треки в игре завести
Вот пример, чтобы работало на всех эмуляторах, которые поддерживают mode 1. И чтобы можно было записать диск с музыкой для железа.

  1. .cue файл и .bin файл с хаком должны одинаково называться. Например:
RR3_mode1.bin
RR3_mode1.cue

  2. Для музыки нужно 7 треков в формате .wav, названные в формате Track1.wav, Track2.wav, Track3.wav, Track4.wav, Track5.wav, Track6.wav и Track7.wav. Каждый соответствует своей стране.
  3. Вот что должно быть в самом .cue файле:
FILE "Track1.wav" BINARY
  TRACK 01 AUDIO
    INDEX 00 00:00:00
    INDEX 01 00:00:00
FILE "Track2.wav" BINARY
  TRACK 02 AUDIO
    INDEX 00 00:00:00
    INDEX 01 00:00:00
FILE "Track3.wav" BINARY
  TRACK 03 AUDIO
    INDEX 00 00:00:00
    INDEX 01 00:00:00
FILE "Track4.wav" BINARY
  TRACK 04 AUDIO
    INDEX 00 00:00:00
    INDEX 01 00:00:00
FILE "Track5.wav" BINARY
  TRACK 01 AUDIO
    INDEX 00 00:00:00
    INDEX 01 00:00:00
FILE "Track6.wav" BINARY
  TRACK 02 AUDIO
    INDEX 00 00:00:00
    INDEX 01 00:00:00
FILE "Track7.wav" BINARY
  TRACK 03 AUDIO
    INDEX 00 00:00:00
    INDEX 01 00:00:00

Вот пример с другим хаком как это должно выглядеть в папке.



 

128
Цитата
напрочь отвергая всех, кто приходит с новыми идеями, только это далеко не путь развития, это застой и деградация.
Сделать аналог Romhacking.net с дамами и скомпилированными ромами за 20 лет уже бесконечное число раз предлагали. Только вот почему-то никто так и не сделал.

129
Цитата
чтобы она была доступны как можно большему колличеству игроков?
А тут только два варианта из твоего поста и подходят. В качестве эмулятора для игры по сети популярны как раз Mednafen и RetroArch.

130
то тоже как он искал бы что это и что с этим делать
За 20 лет существования этого типичного софта можно было бы и разобраться, раз интересны ромхаки.

131
Скачал архив, под тип файла .ips у меня назначен Lunar IPS. Нужно было только выбрать через проводник папку с ромами, выбрать нужный (он написан в описании на сайте с патчем) и нажать пропатчить.

132
Мир ведь только мечтал о таком "удобстве".
Меньше минуты ушло, чтобы ромы пропатчить. :neznayu:

133
Не надо ставить высокую сложность и плакать, дескать, чё враги такие жёсткие.
Это прям как с хаками на Дюну. Когда с лёту ставят сложность на максимум, и думают "Сча я как в детстве тут буду всех разносить" :lol:

134
Цитата
+ добавлена новая спец-версия "Improvement Special", которая ещё больше увеличивает fps, но работает только при наличии sega-cd.
Надо будет попробовать :ohmy:

135
Почему не Водный Город, а Гидро Сити:?

136
Streets of Rage 2: Sonic Wars

Хак добавляет в игру играбельных Соника, Тейлза, Наклза, Эми, Шедоу и доктора Эггмана.


137
Немного актуального геймплея.


138
Сделал такой вариант (банка полностью лечит):
Во, теперь это хотя бы проходимо :)

139
Увеличивает сложность врагов
Для такого ещё не помешало бы сделать банки с лечением получше, чтобы и без абузов интеллекта врагов проходить было можно. А то вот так всю игру проходить не очень прикольно.

140
Лучше сделать что-то полезное, чем хрень для воровства чужих наработок.

141
как ускорить поворот башни у турелей
Никак

142
можно ли редактировать через эту чудную прогу другую версию игры, а не ту что в нем уже находится?
можно ли вынести отдельно юнитов фрименов и сардаукаров?
есть ли гайд для чайников как создать новых юнитов?
На все три вопроса ответ - нет.

143
Вот абсолютно всё что нужно, чтобы делать свои сборки.
Dunehack Rebuild R82
Dune AMC 183
YY-CHR
Notepad++

144
согласен. Опять же, про "жалеть об отключении" я говорил только за РРР, там фиксированный модификатор. ПО инициативе брата как-то убрал его и играли без него, ему не особо понравилось, сказал возвращай)
Не, ну в РРР кетчуп реализован честно, это да.

145
нуя не скажу за другие игры
Зачастую в современных играх чёт типа такого. Это и нифига не весело, и нифига не сложно, а тупо неинтресно.

146
Отключить можно, только радость от такого у тебя очень быстро улетучится  :)
Ну во многих современных гонках от кетчупа уже тошнит, особенно когда боты прям беспалевно читерят (например, вылетев с трассы, нагоняют тебя за 3 поворота как бы хорошо ты не ехал), наказывая пряморуких игроков.

147
Какой лучше использовать эмулятор для игры на 8 человек?
На стримах всегда играли на Mednafen

148
Где за 2017 скачать-то? А то я нашёл только за 2015
Вот самая свежая версия, за декабрь 2018.

150
Немного обновил графику в Dune Razor Missions. На скриншоте слева - новый спрайт Спасителя. Так же были изменены спрайты Девиатора и Хищника.


Страницы: Назад 1 2 3 4 [5] 6 7 8 9 ... 56 Далее